<?xml version="1.0" standalone="no"?>
<!DOCTYPE svg PUBLIC "-//W3C//DTD SVG 1.1//EN" "http://www.w3.org/Graphics/SVG/1.1/DTD/svg11.dtd" >
<svg xmlns="http://www.w3.org/2000/svg" xmlns:xlink="http://www.w3.org/1999/xlink" version="1.1">
<metadata></metadata>
<defs>
<font id="museo_sans700" horiz-adv-x="1280" >
<font-face units-per-em="2048" ascent="1536" descent="-512" />
<missing-glyph horiz-adv-x="497" />
<glyph unicode="&#xfb01;" horiz-adv-x="1257" d="M68 838v206h129v31q0 71 16.5 129t42.5 97.5t63.5 69.5t75 46.5t81 27t78 14t69.5 3.5q24 0 46 -1.5t32 -2.5l10 -2v-221q-23 4 -54 4q-200 0 -200 -170v-25h657v-1044h-260v838h-397v-838h-260v838h-129zM854 1223v231h258v-231h-258z" />
<glyph unicode="&#xfb02;" horiz-adv-x="1292" d="M68 821v207h129v47q0 71 16.5 129t42.5 97.5t63.5 69.5t75 46.5t81 27t78 14t69.5 3.5q24 0 46 -1.5t32 -2.5l10 -2v-221q-23 4 -54 4q-200 0 -200 -170v-41h223v-207h-223v-821h-260v821h-129zM840 326v1128h258v-1089q0 -82 26 -113t80 -31l39 2v-227q-39 -6 -82 -6 q-49 0 -89 6t-85.5 26.5t-75.5 55.5t-50.5 98.5t-20.5 149.5z" />
<glyph unicode="&#xfb03;" horiz-adv-x="1968" d="M68 838v206h129v31q0 71 16.5 129t42.5 97.5t63.5 69.5t75 46.5t81 27t78 14t69.5 3.5q24 0 46 -1.5t32 -2.5l10 -2v-221q-23 4 -54 4q-200 0 -200 -170v-25h450v31q0 71 16.5 129t42.5 97.5t63.5 69.5t75 46.5t81 27t78 14t69.5 3.5q24 0 46 -1.5t32 -2.5l10 -2v-221 q-22 4 -53 4q-201 0 -201 -170v-25h658v-1044h-260v838h-398v-838h-260v838h-450v-838h-260v838h-129zM1565 1223v231h258v-231h-258z" />
<glyph unicode="&#xfb04;" horiz-adv-x="2002" d="M68 838v206h129v31q0 71 16.5 129t42.5 97.5t63.5 69.5t75 46.5t81 27t78 14t69.5 3.5q24 0 46 -1.5t32 -2.5l10 -2v-221q-23 4 -54 4q-200 0 -200 -170v-25h450v31q0 71 16.5 129t42.5 97.5t63.5 69.5t75 46.5t81 27t78 14t69.5 3.5q24 0 46 -1.5t32 -2.5l10 -2v-221 q-22 4 -53 4q-201 0 -201 -170v-25h224v-206h-224v-838h-260v838h-450v-838h-260v838h-129zM1550 326v1128h258v-1089q0 -82 26 -113t81 -31l39 2v-227q-39 -6 -82 -6q-49 0 -89 6t-85.5 26.5t-76 55.5t-51 98.5t-20.5 149.5z" />
<glyph horiz-adv-x="0" />
<glyph horiz-adv-x="682" />
<glyph unicode=" "  horiz-adv-x="497" />
<glyph unicode="&#x09;" horiz-adv-x="497" />
<glyph unicode="&#xa0;" horiz-adv-x="497" />
<glyph unicode="!" horiz-adv-x="671" d="M201 1454h270l-20 -1034h-228zM211 0v242h252v-242h-252z" />
<glyph unicode="&#x22;" horiz-adv-x="749" d="M115 1053v428h192v-428h-192zM442 1053v428h193v-428h-193z" />
<glyph unicode="#" horiz-adv-x="1445" d="M74 383l30 186h244l51 287h-239l30 188h242l72 410h209l-72 -410h279l71 410h209l-72 -410h248l-33 -188h-245l-51 -287h243l-30 -186h-246l-66 -383h-209l68 383h-281l-65 -383h-209l65 383h-243zM557 569h281l51 287h-281z" />
<glyph unicode="$" horiz-adv-x="1167" d="M92 174l144 199q6 -6 18 -16.5t50 -37t78 -47t99.5 -37t116.5 -16.5q89 0 150 45.5t61 130.5q0 39 -23.5 72.5t-63.5 59.5t-92 51t-109.5 50t-115 52.5t-109.5 64t-92 79.5t-63.5 103t-23.5 130q0 157 107 270t278 141v193h176v-188q67 -6 128.5 -23.5t101.5 -38.5 t71 -41t45 -34l14 -13l-114 -215q-6 5 -16.5 13.5t-44.5 30.5t-69.5 39t-88 30.5t-103.5 13.5q-93 0 -156 -49t-63 -125q0 -39 23.5 -71.5t63.5 -57.5t92 -48.5t109 -47.5t114 -51t109 -63.5t92 -80t63.5 -105.5t23.5 -135q0 -161 -106 -278t-289 -141v-189h-176v189 q-74 9 -143.5 32t-115.5 49.5t-82 51.5t-53 42z" />
<glyph unicode="%" horiz-adv-x="1622" d="M78 1155q0 132 98 228t236 96t237 -96t99 -228q0 -135 -99 -229.5t-237 -94.5t-236 94.5t-98 229.5zM129 0l1116 1454h240l-1116 -1454h-240zM276 1155q0 -57 39.5 -96t96.5 -39t97 39t40 96q0 56 -40 95.5t-97 39.5t-96.5 -39.5t-39.5 -95.5zM872 297q0 133 97.5 228.5 t236.5 95.5q138 0 236 -96t98 -228q0 -133 -98 -227.5t-236 -94.5q-139 0 -236.5 94t-97.5 228zM1071 299q0 -57 39 -96t96 -39t97 39t40 96q0 56 -40 95.5t-97 39.5t-96 -39.5t-39 -95.5z" />
<glyph unicode="&#x26;" horiz-adv-x="1406" d="M92 412q0 121 67.5 222t180.5 140v4q-7 3 -19.5 9.5t-44.5 32t-56 58t-44 91t-20 127.5q0 125 63 213t164.5 129t230.5 41q41 0 88.5 -6.5t75.5 -12.5l27 -6l-64 -209q-49 12 -96 12q-97 0 -160 -51t-63 -143q0 -34 10.5 -66t34 -61.5t69 -47.5t107.5 -18h231v189h261 v-189h188v-229h-188v-172q0 -225 -139.5 -359.5t-383.5 -134.5q-232 0 -376 124.5t-144 312.5zM362 428q0 -89 69.5 -150t180.5 -61q125 0 193.5 68t68.5 198v158h-245q-124 0 -195.5 -54.5t-71.5 -158.5z" />
<glyph unicode="'" horiz-adv-x="425" d="M115 1053v428h196v-428h-196z" />
<glyph unicode="(" horiz-adv-x="634" d="M133 702q0 431 244 816h219q-231 -388 -231 -818q0 -470 231 -895h-219q-116 190 -180 420t-64 477z" />
<glyph unicode=")" horiz-adv-x="634" d="M39 -195q231 430 231 895q0 430 -231 818h219q244 -385 244 -816q0 -247 -64 -477t-180 -420h-219z" />
<glyph unicode="*" horiz-adv-x="944" d="M55 1065l70 221l248 -100l-19 268h236l-19 -268l248 100l74 -219l-262 -66v-4l172 -202l-187 -138l-141 226h-4l-141 -226l-187 136l170 204v4z" />
<glyph unicode="+" horiz-adv-x="1296" d="M100 483v203h443v485h211v-485h442v-203h-442v-483h-211v483h-443z" />
<glyph unicode="," horiz-adv-x="542" d="M35 -215l137 479h256l-197 -479h-196z" />
<glyph unicode="-" horiz-adv-x="935" d="M160 471v227h616v-227h-616z" />
<glyph unicode="." horiz-adv-x="526" d="M133 0v260h260v-260h-260z" />
<glyph unicode="/" horiz-adv-x="839" d="M55 -86l520 1614h224l-523 -1614h-221z" />
<glyph unicode="0" horiz-adv-x="1288" d="M117 729q0 130 16.5 239t55 205t97.5 162.5t150 105t207 38.5t207 -38.5t150.5 -105t98.5 -162.5t55.5 -205t16.5 -239t-16.5 -239.5t-55.5 -206t-98.5 -164t-150.5 -106t-207 -38.5t-207 38.5t-150 106t-97.5 164t-55 206t-16.5 239.5zM387 729q0 -512 256 -512t256 512 q0 506 -256 506t-256 -506z" />
<glyph unicode="1" horiz-adv-x="1048" d="M88 1104l365 350h231v-1227h315v-227h-888v227h315v807l2 99h-4q-17 -35 -64 -82l-116 -111z" />
<glyph unicode="2" horiz-adv-x="1187" d="M102 129q0 106 37.5 198.5t97.5 158.5t132.5 124t145 107t132.5 95.5t97.5 101t37.5 112.5q0 93 -63 148t-158 55q-48 0 -92.5 -17.5t-74 -43t-52 -51t-32.5 -43.5l-11 -17l-197 131q3 6 8.5 16.5t26.5 40.5t45.5 57.5t66 61.5t88 58t111.5 40.5t136 16.5 q200 0 336.5 -116t136.5 -314q0 -95 -36 -177.5t-93.5 -142.5t-127.5 -113t-140 -98.5t-128 -89t-95 -95t-38 -106.5h680v-227h-964q-13 102 -13 129z" />
<glyph unicode="3" horiz-adv-x="1175" d="M72 170l135 203l16 -16t44 -35.5t70.5 -45t91 -35.5t108.5 -16q114 0 188 61.5t74 155.5q0 110 -88 168t-224 58h-100l-59 135l266 315q25 30 51 58t39 40l14 13v4q-43 -6 -129 -6h-434v227h889v-166l-356 -411q77 -11 147 -43.5t126.5 -84t90 -128.5t33.5 -168 q0 -94 -35 -179.5t-99 -152.5t-162 -106.5t-216 -39.5q-87 0 -168 20t-135.5 48.5t-96.5 57.5t-61 49z" />
<glyph unicode="4" horiz-adv-x="1271" d="M57 375v162l627 917h313v-860h189v-219h-189v-375h-260v375h-680zM336 594h401v450q0 32 2.5 70t5.5 60l3 22h-5q-32 -78 -71 -133l-336 -465v-4z" />
<glyph unicode="5" horiz-adv-x="1165" d="M88 172l135 199q5 -6 14 -16t40.5 -35t65 -44t85 -35t104.5 -16q111 0 193 68.5t82 179.5q0 112 -83.5 182t-209.5 70q-57 0 -113.5 -15.5t-84.5 -30.5l-27 -15l-146 53l68 737h764v-227h-537l-22 -240l-10 -67h4q67 32 155 32q234 0 373 -137t139 -340 q0 -216 -148.5 -358t-375.5 -142q-63 0 -122.5 11t-104.5 28t-85 38t-67 42.5t-47 38.5t-29 28z" />
<glyph unicode="6" horiz-adv-x="1236" d="M109 666q0 116 25.5 230.5t80.5 220t132 186t188.5 128.5t242.5 48q82 0 156 -15.5t108 -31.5l33 -15l-78 -227q-91 45 -204 45q-83 0 -151.5 -32.5t-114.5 -88t-76.5 -123t-44.5 -145.5h4q38 44 116 73t156 29q139 0 247 -67t164 -176.5t56 -241.5q0 -101 -34.5 -190 t-96 -155t-152 -104.5t-196.5 -38.5q-114 0 -215.5 47t-178.5 133.5t-122 218.5t-45 292zM383 573q0 -138 86.5 -247t200.5 -109q99 0 158 70t59 176q0 116 -70 192t-196 76q-99 0 -168.5 -45.5t-69.5 -112.5z" />
<glyph unicode="7" horiz-adv-x="1114" d="M72 1227v227h999v-184l-637 -1270h-274l545 1094q20 40 42 73t34 47l12 13v4q-29 -4 -101 -4h-620z" />
<glyph unicode="8" horiz-adv-x="1251" d="M104 422q0 58 19 115.5t45 97t60 76.5t55.5 55t40.5 31q-150 116 -150 284q0 77 29 147t84.5 127t147 90.5t206.5 33.5q207 0 339 -109.5t132 -294.5q0 -173 -162 -358q88 -57 137.5 -130.5t49.5 -178.5q0 -84 -35 -161.5t-98.5 -138.5t-162 -97t-216.5 -36 q-232 0 -376.5 128t-144.5 319zM375 442q0 -101 74 -167t176 -66q104 0 173.5 58t69.5 153q0 31 -16 59t-36.5 47.5t-62 44t-71 38.5t-86.5 39.5t-86 39.5q-135 -112 -135 -246zM434 1075q0 -30 10 -56t32 -49t44 -40t60 -37t66 -32.5t75 -32.5q8 -3 12.5 -5t11 -5t11.5 -5 q98 113 98 246q0 84 -59 134t-158 50q-96 0 -149.5 -47.5t-53.5 -120.5z" />
<glyph unicode="9" horiz-adv-x="1236" d="M88 991q0 134 58.5 245t169 177t251.5 66q114 0 215.5 -47t178.5 -133.5t122 -218.5t45 -292q0 -116 -25.5 -230.5t-80.5 -220t-132 -186t-188.5 -128.5t-242.5 -48q-82 0 -156 15.5t-107 31.5l-34 15l78 227q10 -5 28.5 -13t71.5 -21t102 -13q83 0 151.5 32.5t115.5 88 t77.5 123t44.5 145.5h-4q-38 -44 -116.5 -73t-157.5 -29q-139 0 -246.5 67.5t-163 177.5t-55.5 242zM348 991q0 -116 70.5 -193t197.5 -77q99 0 168.5 46t69.5 112q0 138 -87 247t-200 109q-99 0 -159 -69.5t-60 -174.5z" />
<glyph unicode=":" horiz-adv-x="589" d="M166 0v260h258v-260h-258zM166 784v260h258v-260h-258z" />
<glyph unicode=";" horiz-adv-x="598" d="M63 -215l119 479h256l-176 -479h-199zM184 784v260h258v-260h-258z" />
<glyph unicode="&#x3c;" horiz-adv-x="1138" d="M51 502v168l985 438v-227l-710 -293v-4l710 -293v-228z" />
<glyph unicode="=" horiz-adv-x="1335" d="M168 274v201h999v-201h-999zM168 694v201h999v-201h-999z" />
<glyph unicode="&#x3e;" horiz-adv-x="1138" d="M102 63v228l711 293v4l-711 293v227l985 -438v-168z" />
<glyph unicode="?" horiz-adv-x="997" d="M49 1335q6 6 17 16t48.5 35.5t79 45t107 35.5t133.5 16q87 0 167.5 -26.5t142.5 -74.5t99.5 -122t37.5 -162q0 -69 -19.5 -127.5t-51 -100.5t-70 -79t-76.5 -69.5t-69.5 -65t-51 -72t-19.5 -84.5v-80h-252v98q0 82 35 150t84.5 114t99 88.5t84.5 93.5t35 109 q0 72 -56.5 121t-141.5 49q-52 0 -107 -21.5t-83 -43.5l-29 -21zM272 0v242h252v-242h-252z" />
<glyph unicode="@" horiz-adv-x="1708" d="M104 492q0 157 60 298.5t162 243.5t245 161.5t303 59.5q122 0 219 -24t160.5 -65t106 -98.5t60.5 -121.5t18 -137v-512h149v-186h-567q-100 0 -184.5 32t-139.5 85t-85.5 121.5t-30.5 142.5q0 154 119 264t321 110h174q-3 79 -90 130t-221 51q-145 0 -266 -78t-189 -205 t-68 -272q0 -150 66.5 -274.5t194.5 -199.5t294 -75v-203q-179 0 -331.5 58.5t-257 159.5t-163.5 239.5t-59 294.5zM838 498q0 -85 55 -143t143 -58h158v401h-154q-90 0 -146 -58t-56 -142z" />
<glyph unicode="A" horiz-adv-x="1304" d="M2 0l512 1454h277l512 -1454h-273l-123 373h-510l-123 -373h-272zM461 588h381l-129 389q-12 36 -26.5 92.5t-22.5 94.5l-9 38h-4q-32 -143 -61 -225z" />
<glyph unicode="B" horiz-adv-x="1314" d="M184 0v1454h521q201 0 324.5 -99.5t123.5 -275.5q0 -102 -46.5 -184.5t-129.5 -126.5v-4q114 -34 174.5 -129t60.5 -213q0 -85 -26.5 -155.5t-72.5 -119t-110 -82.5t-137 -49.5t-155 -15.5h-527zM449 227h282q99 0 155 58.5t56 152.5q0 93 -56.5 151t-154.5 58h-282v-420 zM449 860h256q84 0 132 53t48 134t-48 130.5t-137 49.5h-251v-367z" />
<glyph unicode="C" horiz-adv-x="1466" d="M84 733q0 156 57 294t155.5 237.5t237.5 157t297 57.5q99 0 191 -20.5t152 -49.5t106 -58.5t67 -50.5l21 -20l-127 -197q-7 6 -19.5 16.5t-53.5 37t-84.5 47t-109 37t-130.5 16.5q-149 0 -261.5 -69t-169.5 -181.5t-57 -249.5q0 -139 58 -256.5t171.5 -190.5t260.5 -73 q71 0 140 19t118 46t87.5 54t57.5 46l19 19l139 -190q-8 -10 -24 -25.5t-70.5 -56.5t-115.5 -72t-159 -56.5t-202 -25.5q-218 0 -390.5 100t-267 272.5t-94.5 385.5z" />
<glyph unicode="D" horiz-adv-x="1513" d="M184 0v1454h496q340 0 540.5 -192t200.5 -533t-200.5 -535t-540.5 -194h-496zM449 227h217q225 0 354 130t129 372q0 239 -130 368.5t-353 129.5h-217v-1000z" />
<glyph unicode="E" horiz-adv-x="1177" d="M184 0v1454h871v-227h-606v-381h489v-228h-489v-391h638v-227h-903z" />
<glyph unicode="F" horiz-adv-x="1083" d="M184 0v1454h836v-227h-571v-412h481v-227h-481v-588h-265z" />
<glyph unicode="G" horiz-adv-x="1556" d="M86 729q0 156 57 295t155.5 239t238.5 158t299 58q100 0 192 -19t152.5 -46t107 -54.5t67.5 -46.5l21 -19l-131 -196q-6 6 -18 15t-51.5 33t-81.5 42.5t-106.5 33.5t-129.5 15q-158 0 -273 -68.5t-171 -180.5t-56 -251q0 -232 140 -376t348 -144q61 0 121 15.5t102 38 t75.5 45t49.5 38.5l16 15v170h-223v227h461v-766h-225v70l2 61h-4q-6 -6 -18 -16.5t-52.5 -37.5t-86 -47.5t-117.5 -37.5t-148 -17q-143 0 -273 54.5t-227.5 150.5t-155 239t-57.5 310z" />
<glyph unicode="H" horiz-adv-x="1562" d="M184 0v1454h265v-616h665v616h264v-1454h-264v610h-665v-610h-265z" />
<glyph unicode="I" horiz-adv-x="632" d="M184 0v1454h265v-1454h-265z" />
<glyph unicode="J" horiz-adv-x="1120" d="M49 430v84h262v-68q0 -120 55 -174.5t138 -54.5q81 0 133.5 53t52.5 164v793h-375v227h639v-1024q0 -114 -39 -204t-104.5 -143t-144.5 -80.5t-166 -27.5q-68 0 -132.5 17t-122.5 53.5t-101.5 89t-69 128.5t-25.5 167z" />
<glyph unicode="K" horiz-adv-x="1325" d="M184 0v1454h265v-592h188l342 592h287l-412 -692v-4l436 -758h-297l-356 635h-188v-635h-265z" />
<glyph unicode="L" horiz-adv-x="1103" d="M184 0v1454h265v-1227h628v-227h-893z" />
<glyph unicode="M" horiz-adv-x="1798" d="M139 0l119 1454h283l284 -719l74 -213h4q39 127 72 213l285 719h282l117 -1454h-262l-62 813q-3 43 -3 99q0 19 -1 35q0 33 1 56l1 35h-4q-43 -141 -78 -225l-235 -563h-232l-233 563q-16 37 -36 94t-32 95l-12 38h-4q2 -52 2 -99q0 -70 -4 -128l-62 -813h-264z" />
<glyph unicode="N" horiz-adv-x="1556" d="M184 0v1454h265l550 -840q24 -37 54.5 -93.5t48.5 -94.5l18 -37h4q-14 139 -14 225v840h262v-1454h-262l-551 838q-24 37 -54.5 93.5t-48.5 94.5l-18 37h-4q15 -139 15 -225v-838h-265z" />
<glyph unicode="O" horiz-adv-x="1671" d="M84 737q0 154 58 291t157.5 236t239 157t297.5 58t297.5 -58t239 -157t157 -236t57.5 -291q0 -158 -57.5 -299t-157 -242.5t-239 -161t-297.5 -59.5t-297.5 59.5t-239 161t-157.5 242.5t-58 299zM356 737q0 -222 139.5 -371t340.5 -149t340 149t139 371q0 141 -64 256 t-173.5 179.5t-241.5 64.5q-98 0 -187 -38t-153 -104t-102 -159t-38 -199z" />
<glyph unicode="P" horiz-adv-x="1257" d="M184 0v1454h561q205 0 334 -131t129 -342q0 -212 -129.5 -345.5t-333.5 -133.5h-296v-502h-265zM449 731h247q114 0 179 67.5t65 182.5q0 113 -64 179.5t-176 66.5h-251v-496z" />
<glyph unicode="Q" horiz-adv-x="1691" d="M84 735q0 154 57.5 292t157 237t239 157t296.5 58q211 0 384 -98.5t271 -269t98 -376.5q0 -249 -160 -461l164 -147l-151 -168l-162 160q-189 -144 -444 -144q-209 0 -381.5 101t-270.5 275.5t-98 383.5zM356 735q0 -221 138.5 -369.5t339.5 -148.5q140 0 253 76 l-161 153l151 166l158 -157q80 131 80 280q0 215 -138.5 358.5t-342.5 143.5q-201 0 -339.5 -143.5t-138.5 -358.5z" />
<glyph unicode="R" horiz-adv-x="1347" d="M184 0v1454h469q116 0 180.5 -9.5t112.5 -31.5q111 -51 174.5 -153t63.5 -244q0 -133 -66.5 -243t-179.5 -155v-4q20 -20 49 -71l299 -543h-295l-289 543h-253v-543h-265zM449 772h237q106 0 167.5 60.5t61.5 168.5q0 112 -59.5 169t-206.5 57h-200v-455z" />
<glyph unicode="S" horiz-adv-x="1134" d="M74 174l143 199q6 -6 18 -16.5t50.5 -37t78.5 -47t99.5 -37t116.5 -16.5q89 0 150 45.5t61 130.5q0 52 -38 94.5t-98.5 73t-133.5 61t-146.5 68t-134 84t-98.5 118.5t-38 163q0 181 139.5 301.5t348.5 120.5q80 0 154.5 -16t123 -39t85.5 -46t54 -39l17 -16l-115 -215 q-6 5 -16.5 13.5t-44 30.5t-69 39t-88 30.5t-103.5 13.5q-93 0 -156 -49t-63 -125q0 -41 23.5 -75t63 -59t91 -48t108 -46.5t113 -49.5t108 -61.5t91 -79t63 -105.5t23.5 -136q0 -180 -130 -303t-350 -123q-91 0 -176 20.5t-141.5 49.5t-100 58.5t-63.5 50.5z" />
<glyph unicode="T" horiz-adv-x="1234" d="M8 1227v227h1219v-227h-477v-1227h-265v1227h-477z" />
<glyph unicode="U" horiz-adv-x="1501" d="M164 522v932h264v-932q0 -144 87 -224.5t235 -80.5q149 0 236 80.5t87 226.5v930h264v-932q0 -245 -161.5 -396t-423.5 -151q-264 0 -426 151t-162 396z" />
<glyph unicode="V" horiz-adv-x="1318" d="M-2 1454h285l319 -948q13 -37 26 -90.5t20.5 -88t8.5 -34.5h5q1 0 8.5 34.5t20.5 88t26 90.5l321 948h283l-530 -1454h-263z" />
<glyph unicode="W" horiz-adv-x="1978" d="M53 1454h273l229 -1005q8 -36 14 -74.5t9 -58.5l2 -21h4l2 19q2 20 8 59t16 76l262 1005h230l258 -1005q10 -37 16 -76t8 -59l2 -19h5q6 72 24 154l240 1005h272l-375 -1454h-305l-223 860q-11 42 -20.5 89.5t-13.5 74.5l-3 27h-4q-12 -97 -37 -191l-223 -860h-305z" />
<glyph unicode="X" horiz-adv-x="1296" d="M35 0l452 737l-434 717h301l199 -356q21 -37 44 -81.5t35 -70.5l13 -26h4q41 92 88 178l203 356h303l-438 -717l455 -737h-297l-226 391l-90 172h-4q-41 -88 -90 -172l-223 -391h-295z" />
<glyph unicode="Y" horiz-adv-x="1239" d="M4 1454h299l227 -428q20 -39 42 -89t33.5 -78.5t12.5 -27.5h5q41 105 88 195l225 428h299l-483 -846v-608h-265v608z" />
<glyph unicode="Z" horiz-adv-x="1257" d="M78 0v170l645 926q25 37 51.5 70t40.5 47l14 14v4q-40 -4 -108 -4h-610v227h1050v-168l-645 -928q-25 -37 -51.5 -70t-40.5 -47l-14 -14v-4q40 4 108 4h651v-227h-1091z" />
<glyph unicode="[" horiz-adv-x="649" d="M190 -195v1713h404v-189h-182v-1335h182v-189h-404z" />
<glyph unicode="\" horiz-adv-x="841" d="M41 1528h223l522 -1614h-223z" />
<glyph unicode="]" horiz-adv-x="649" d="M55 -6h183v1335h-183v189h404v-1713h-404v189z" />
<glyph unicode="^" horiz-adv-x="1267" d="M133 502l412 952h164l411 -952h-225l-268 678l-269 -678h-225z" />
<glyph unicode="_" horiz-adv-x="1230" d="M41 0h1149v-201h-1149v201z" />
<glyph unicode="`" horiz-adv-x="1009" d="M293 1829h268l156 -279h-211z" />
<glyph unicode="a" horiz-adv-x="1093" d="M55 301q0 68 26 124t66.5 92t98.5 62.5t112.5 40.5t119.5 22.5t107.5 10.5t88.5 2h35v15q0 184 -201 184q-67 0 -138.5 -25t-109.5 -50l-39 -25l-98 186q7 5 19 14t53.5 31t86 39t113 31t137.5 14q206 0 320.5 -109t114.5 -307v-653h-240v86l4 74h-4q2 0 -8.5 -19 t-34.5 -46t-58.5 -54.5t-91.5 -46.5t-124 -19q-147 0 -251 88t-104 238zM317 313q0 -56 41.5 -95.5t116.5 -39.5q98 0 167 87t69 188v24h-45q-349 0 -349 -164z" />
<glyph unicode="b" horiz-adv-x="1251" d="M143 0v1454h260v-448l-4 -88h4q4 6 11.5 16.5t35.5 36.5t61 45.5t88.5 36t117.5 16.5q211 0 337 -151t126 -396q0 -246 -135 -396.5t-345 -150.5q-61 0 -115.5 16t-88.5 39t-59.5 46t-36.5 39l-11 16h-4q4 -31 4 -72v-59h-246zM395 516q0 -131 68.5 -226t191.5 -95 q112 0 187.5 86.5t75.5 236.5q0 148 -72.5 238t-188.5 90q-111 0 -186.5 -83.5t-75.5 -246.5z" />
<glyph unicode="c" horiz-adv-x="1116" d="M68 522q0 149 68.5 273t199.5 199t299 75q76 0 145.5 -16t114 -39t78 -46t48.5 -39l15 -16l-114 -178q-4 5 -12.5 12.5t-36 27t-57.5 34.5t-75.5 27t-91.5 12q-142 0 -229.5 -93.5t-87.5 -230.5q0 -136 90 -231.5t235 -95.5q49 0 99 13.5t86 33.5t65 39.5t43 32.5l15 14 l100 -185q-6 -7 -18 -18.5t-52.5 -40.5t-86.5 -51.5t-120 -41t-153 -18.5q-127 0 -234 43t-179.5 117t-113 174t-40.5 213z" />
<glyph unicode="d" horiz-adv-x="1251" d="M72 522q0 247 132 397t341 150q64 0 118.5 -13.5t87 -33t55 -39.5t31.5 -33l9 -14h4q-2 26 -2 59v459h260v-1454h-246v86l4 68h-4q-4 -7 -11 -19t-35 -43t-62 -54.5t-93 -43t-126 -19.5q-211 0 -337 151t-126 396zM334 522q0 -148 72 -237.5t188 -89.5q111 0 186.5 83 t75.5 246q0 84 -28 155.5t-88.5 119t-143.5 47.5q-112 0 -187 -87t-75 -237z" />
<glyph unicode="e" horiz-adv-x="1134" d="M70 522q0 241 148.5 394t381.5 153q146 0 252.5 -67t158.5 -178t52 -251l-6 -100h-721q12 -131 101 -203.5t212 -72.5q47 0 95.5 11.5t83.5 28.5t64 34t44 29l14 11l101 -186q-7 -6 -19 -16t-53.5 -36t-87 -46t-116.5 -36t-144 -16q-168 0 -297.5 75t-196.5 199t-67 273z M344 651h457q-3 103 -60.5 160t-146.5 57q-99 0 -165 -57.5t-85 -159.5z" />
<glyph unicode="f" horiz-adv-x="710" d="M68 821v207h129v47q0 71 16.5 129t42.5 97.5t63.5 69.5t75 46.5t81 27t78 14t69.5 3.5q24 0 46 -1.5t32 -2.5l10 -2v-221q-23 4 -54 4q-200 0 -200 -170v-41h223v-207h-223v-821h-260v821h-129z" />
<glyph unicode="g" horiz-adv-x="1236" d="M74 549q0 146 52 262t158.5 187t252.5 71q64 0 119 -13.5t88.5 -33t57.5 -39.5t34 -33l10 -14h6q-2 13 -2 29v79h244v-981q0 -104 -31.5 -188.5t-84 -140t-124 -93.5t-149.5 -54.5t-162 -16.5q-96 0 -195 24.5t-176 65.5l78 199q15 -8 41 -19t102 -30t146 -19 q131 0 213 61.5t82 192.5v61l4 56h-4q-94 -142 -291 -142q-145 0 -253 73t-162 191.5t-54 264.5zM336 557q0 -140 69.5 -228.5t192.5 -88.5q50 0 91 15.5t76 49t55 95.5t20 147q0 86 -20 147t-57 93.5t-81 46.5t-100 14q-117 0 -181.5 -78.5t-64.5 -212.5z" />
<glyph unicode="h" horiz-adv-x="1255" d="M143 0v1454h260v-504l-4 -88h4q43 84 138.5 145.5t222.5 61.5q362 0 362 -397v-672h-258v618q0 104 -36 158.5t-130 54.5q-101 0 -176.5 -60t-105.5 -157q-17 -58 -17 -135v-479h-260z" />
<glyph unicode="i" horiz-adv-x="546" d="M143 0v1044h260v-1044h-260zM143 1223v231h258v-231h-258z" />
<glyph unicode="j" horiz-adv-x="546" d="M-113 -199q18 -4 45 -4q26 0 50.5 3.5t55 15.5t53 32t37.5 56.5t15 85.5v1054h260v-1075q0 -100 -32.5 -175t-79 -115t-110 -65t-113 -31.5t-101.5 -6.5q-22 0 -42 1.5t-29 2.5l-9 2v219zM143 1223v231h258v-231h-258z" />
<glyph unicode="k" horiz-adv-x="1130" d="M143 0v1454h260v-778h129l252 368h289l-330 -466v-5l371 -573h-299l-276 457h-136v-457h-260z" />
<glyph unicode="l" horiz-adv-x="581" d="M129 326v1128h258v-1089q0 -82 26 -113t81 -31l38 2v-227q-38 -6 -81 -6q-49 0 -89 6t-85.5 26.5t-76 55.5t-51 98.5t-20.5 149.5z" />
<glyph unicode="m" horiz-adv-x="1869" d="M143 0v1044h250v-120l-4 -72h4q43 87 134.5 152t205.5 65q239 0 305 -215h4q45 90 142.5 152.5t214.5 62.5q342 0 342 -397v-672h-260v623q0 101 -30 154.5t-114 53.5q-95 0 -161 -66.5t-91 -170.5q-12 -49 -12 -135v-459h-260v623q0 38 -3 65.5t-11.5 56t-23.5 46.5 t-41 29t-62 11q-97 0 -163.5 -66.5t-92.5 -172.5q-13 -51 -13 -133v-459h-260z" />
<glyph unicode="n" horiz-adv-x="1255" d="M143 0v1044h250v-120l-4 -72h4q15 29 35.5 56.5t54 57.5t72.5 52t93.5 36.5t115.5 14.5q362 0 362 -397v-672h-258v618q0 104 -36 158.5t-130 54.5q-102 0 -176 -58.5t-104 -154.5q-19 -58 -19 -139v-479h-260z" />
<glyph unicode="o" d="M66 522q0 156 77 282t208 195.5t288 69.5q158 0 289.5 -69.5t208.5 -195.5t77 -282q0 -157 -77 -283t-207.5 -195t-288.5 -69q-159 0 -290 69t-208 194.5t-77 283.5zM330 522q0 -143 90.5 -234t220.5 -91q129 0 219 91t90 234q0 142 -90 234t-219 92q-130 0 -220.5 -92 t-90.5 -234z" />
<glyph unicode="p" horiz-adv-x="1251" d="M143 -410v1454h238v-75l-4 -72h4q4 7 11.5 18.5t36 41t63.5 52.5t95.5 41.5t129.5 18.5q211 0 337 -151t126 -396q0 -246 -135 -396.5t-343 -150.5q-58 0 -110 15t-85 36t-58 42t-35 36l-11 15h-4q4 -37 4 -90v-439h-260zM395 516q0 -131 69 -226t191 -95 q112 0 187.5 86.5t75.5 236.5q0 148 -72.5 238t-188.5 90q-111 0 -186.5 -83.5t-75.5 -246.5z" />
<glyph unicode="q" horiz-adv-x="1251" d="M72 522q0 247 132 397t341 150q64 0 120.5 -15.5t91 -37.5t59.5 -44.5t36 -37.5l10 -16h4q-4 26 -4 67v59h246v-1454h-260v451l4 90h-4l-11 -16.5t-34.5 -37.5t-60 -47.5t-88.5 -37.5t-119 -17q-211 0 -337 151t-126 396zM334 522q0 -148 72 -237.5t188 -89.5 q111 0 186.5 83t75.5 246q0 84 -28 155.5t-88.5 119t-143.5 47.5q-112 0 -187 -87t-75 -237z" />
<glyph unicode="r" horiz-adv-x="804" d="M143 0v1044h250v-180l-4 -73h4q37 117 126.5 192.5t205.5 75.5l47 -4v-256q-26 4 -61 4q-59 0 -112.5 -21.5t-101.5 -72.5t-71 -125q-23 -73 -23 -170v-414h-260z" />
<glyph unicode="s" horiz-adv-x="925" d="M55 129l119 182q5 -5 13.5 -12.5t37.5 -27t60 -34.5t78.5 -27.5t95.5 -12.5q58 0 97.5 25t39.5 69q0 31 -28 57t-73 46t-99 41.5t-108 49.5t-99 63.5t-73 90.5t-28 123q0 142 112.5 224.5t286.5 82.5q66 0 126.5 -12.5t99.5 -29.5t68.5 -34.5t42.5 -30.5l14 -12l-97 -192 q-4 4 -11.5 10t-32.5 21.5t-53 27.5t-71 21.5t-88 9.5q-56 0 -94.5 -24t-38.5 -70q0 -29 28 -54t73 -44.5t99 -40t108 -49t99 -63.5t73 -90.5t28 -123.5q0 -134 -109 -224t-290 -90q-73 0 -141.5 16t-114.5 38.5t-81.5 45t-51.5 38.5z" />
<glyph unicode="t" horiz-adv-x="772" d="M53 821v207h142v301h254v-301h237v-207h-237v-405q0 -49 15 -86t36.5 -57.5t51 -33.5t54 -16.5t49.5 -3.5l47 4v-227q-30 -6 -79 -6q-36 0 -70.5 3t-79 13.5t-83 27.5t-77 47.5t-65 70.5t-43.5 99.5t-17 131.5v438h-135z" />
<glyph unicode="u" horiz-adv-x="1247" d="M129 373v671h260v-618q0 -104 35.5 -158.5t126.5 -54.5q135 0 214 102.5t79 249.5v479h260v-1044h-250v119l4 74h-4q-42 -89 -139 -153.5t-223 -64.5q-363 0 -363 398z" />
<glyph unicode="v" horiz-adv-x="1062" d="M0 1044h274l218 -647q9 -27 17.5 -66.5t13 -65t5.5 -25.5h4q1 0 6 25.5t13.5 65t17.5 66.5l217 647h275l-375 -1044h-307z" />
<glyph unicode="w" horiz-adv-x="1681" d="M29 1044h274l182 -686q6 -24 11.5 -51.5t7.5 -42.5l2 -16h4q11 55 25 110l192 684h231l193 -684l23 -110h4q8 55 22 110l182 686h271l-318 -1044h-288l-177 596l-26 113h-4q-9 -58 -25 -113l-176 -596h-291z" />
<glyph unicode="x" horiz-adv-x="1073" d="M35 0l344 528l-336 516h295l162 -284l35 -66h4q18 39 34 66l162 284h295l-336 -516l344 -528h-288l-183 303l-28 55h-4q-15 -32 -29 -55l-182 -303h-289z" />
<glyph unicode="y" horiz-adv-x="1067" d="M-16 1044h292l220 -602q9 -24 18.5 -59.5t15.5 -58.5l5 -23h4q16 82 34 137l205 606h285l-467 -1202q-53 -137 -152.5 -204.5t-224.5 -67.5q-56 0 -110 17t-81 34l-26 17l86 194q58 -43 117 -43q56 0 104 34t76 101l39 92z" />
<glyph unicode="z" horiz-adv-x="1073" d="M72 0v139l469 588q21 26 43 50t34 35l11 11v4q-31 -4 -97 -4h-440v221h889v-141l-469 -588q-21 -26 -43.5 -50t-34.5 -35l-12 -11v-4q30 6 98 6h475v-221h-923z" />
<glyph unicode="{" horiz-adv-x="747" d="M88 557v227q7 0 19 2t42 14.5t52.5 33.5t41.5 64.5t19 102.5v177q0 89 27.5 155t66 101.5t92 57t94 27t83.5 5.5l63 -2v-193q-17 2 -37 2t-39 -3t-43.5 -13.5t-42.5 -28.5t-30.5 -51.5t-12.5 -77.5v-223q0 -57 -17.5 -105t-42 -75.5t-49 -46.5t-42.5 -26l-17 -7v-4 q7 -2 18 -6.5t40 -24t51.5 -45.5t40.5 -74.5t18 -107.5v-246q0 -45 12.5 -78.5t30.5 -51t42.5 -28.5t43.5 -13.5t39 -2.5l37 2v-193q-26 -4 -63 -4q-43 0 -83.5 5.5t-94 27t-92 57t-66 102.5t-27.5 156v199q0 57 -18 100.5t-43.5 63.5t-51 32.5t-43.5 14.5z" />
<glyph unicode="|" horiz-adv-x="593" d="M186 -330v1960h222v-1960h-222z" />
<glyph unicode="}" horiz-adv-x="747" d="M59 -6q17 -2 37 -2t38.5 2.5t43 13.5t42 28.5t30 51t12.5 78.5v246q0 59 17.5 107.5t42.5 75t50 45t42 24.5l18 6v4q-7 2 -18.5 7t-40.5 25.5t-51.5 47t-41 75t-18.5 105.5v223q0 55 -17.5 92.5t-46 53.5t-52.5 22t-50 6l-37 -2v193q27 2 64 2q29 0 57 -2.5t65.5 -11.5 t69.5 -24t64 -41.5t55 -61.5t37 -88t14 -117v-177q0 -59 18 -102.5t43.5 -64.5t51 -33.5t43.5 -14.5l18 -2v-227q-7 0 -19 -2t-42 -14.5t-52.5 -32.5t-41.5 -63.5t-19 -100.5v-199q0 -75 -18 -134t-50 -95.5t-68.5 -61.5t-80.5 -36.5t-77 -16t-68 -4.5l-64 4v193z" />
<glyph unicode="~" horiz-adv-x="1249" d="M115 408q0 186 81 279t234 93q57 0 104 -19t79 -46.5t60.5 -55t62.5 -46.5t71 -19q63 0 95 51t32 127h205q0 -187 -80.5 -280t-233.5 -93q-57 0 -104 19t-78.5 46.5t-60 54.5t-62.5 46t-71 19q-64 0 -95.5 -50.5t-31.5 -125.5h-207z" />
<glyph unicode="&#xa1;" horiz-adv-x="624" d="M176 -410l23 1033h227l20 -1033h-270zM186 801v241h250v-241h-250z" />
<glyph unicode="&#xa2;" horiz-adv-x="1179" d="M92 727q0 222 120 383t314 195v172h176v-172q135 -25 237.5 -112.5t152.5 -219.5l-234 -90q-33 82 -93 132t-144 50q-118 0 -192.5 -95t-74.5 -243q0 -154 72 -246t195 -92q83 0 143.5 50t93.5 132l234 -90q-32 -79 -82.5 -145.5t-132 -119t-175.5 -64.5v-177h-176v177 q-194 32 -314 192.5t-120 382.5z" />
<glyph unicode="&#xa3;" horiz-adv-x="1210" d="M104 0v227h119v410h-88v178h88v248q0 181 132 298.5t335 117.5q62 0 122.5 -15t102.5 -37t75.5 -44t49.5 -37l17 -15l-150 -180q-11 10 -30 24.5t-74.5 39t-106.5 24.5q-91 0 -147.5 -52.5t-56.5 -131.5v-240h362v-178h-362v-410h638v-227h-1026z" />
<glyph unicode="&#xa5;" horiz-adv-x="1257" d="M47 1454h301l191 -387q24 -48 46 -106.5t32 -92.5l10 -34h4q35 124 88 233l190 387h301l-315 -592h201v-155h-281l-51 -101v-67h332v-156h-332v-383h-268v383h-334v156h334v67l-54 101h-280v155h200z" />
<glyph unicode="&#xa7;" horiz-adv-x="962" d="M78 -2l110 176q4 -4 11.5 -10t32 -21.5t50.5 -27.5t63.5 -21.5t74.5 -9.5q92 0 151.5 52.5t59.5 154.5q0 31 -19 117l-137 661h205l145 -704q15 -69 15 -105q0 -173 -109 -280t-311 -107q-60 0 -117.5 13t-96.5 31.5t-69 36.5t-45 31zM117 1104q0 165 111.5 270 t308.5 105q60 0 117.5 -13t96.5 -31.5t69 -37.5t44 -32l15 -13l-117 -166q-11 9 -30 22.5t-77.5 35.5t-115.5 22q-95 0 -153 -47.5t-58 -145.5q0 -34 14 -102l141 -688h-202l-150 704q-14 68 -14 117z" />
<glyph unicode="&#xa8;" horiz-adv-x="1009" d="M217 1591v238h201v-238h-201zM594 1591v238h199v-238h-199z" />
<glyph unicode="&#xa9;" horiz-adv-x="1656" d="M94 727q0 153 58 292t156 239.5t233 159.5t284 59q202 0 371.5 -100t268 -272.5t98.5 -377.5q0 -153 -58 -292.5t-156.5 -240t-235.5 -160t-288 -59.5q-149 0 -284 59.5t-233 160t-156 240t-58 292.5zM276 727q0 -162 72.5 -296.5t198.5 -212t278 -77.5q155 0 283 77.5 t201 212t73 296.5q0 161 -73 295t-201 211.5t-283 77.5q-114 0 -216 -45.5t-175 -123.5t-115.5 -186.5t-42.5 -228.5zM453 723q0 166 108.5 282.5t274.5 116.5q69 0 129 -22t95.5 -54t61 -63.5t35.5 -53.5l10 -22l-155 -73q-2 5 -6.5 13t-20 28t-33.5 35.5t-47.5 28.5 t-62.5 13q-90 0 -145.5 -65.5t-55.5 -163.5q0 -101 54 -165t147 -64q33 0 63 12t48.5 29.5t32.5 35t20 29.5l6 12l155 -71q-3 -9 -10.5 -23.5t-35 -52t-61.5 -66t-94.5 -52t-129.5 -23.5q-166 0 -274.5 116.5t-108.5 282.5z" />
<glyph unicode="&#xaa;" horiz-adv-x="845" d="M127 985q0 225 379 225h18v15q0 106 -118 106q-37 0 -79 -13.5t-65 -27.5l-24 -14l-66 121q4 3 11.5 8.5t32.5 19t53 23.5t73 18.5t92 8.5q132 0 203.5 -70.5t71.5 -196.5v-411h-172v90h-5q-2 -4 -6.5 -11t-20.5 -25t-35.5 -31.5t-52.5 -24.5t-71 -11q-88 0 -153.5 54.5 t-65.5 146.5zM129 545v139h586v-139h-586zM311 997q0 -31 22 -50t60 -19q55 0 92 45t37 102v15h-22q-189 0 -189 -93z" />
<glyph unicode="&#xab;" horiz-adv-x="1196" d="M72 578l336 421h247l-336 -421l336 -420h-247zM530 578l336 421h248l-336 -421l336 -420h-248z" />
<glyph unicode="&#xac;" horiz-adv-x="1234" d="M96 694v201h1000v-602h-209v401h-791z" />
<glyph unicode="&#xad;" horiz-adv-x="882" d="M133 471v227h617v-227h-617z" />
<glyph unicode="&#xae;" horiz-adv-x="1656" d="M94 727q0 153 58 292t156 239.5t233 159.5t284 59q202 0 371.5 -100t268 -272.5t98.5 -377.5q0 -153 -58 -292.5t-156.5 -240t-235.5 -160t-288 -59.5q-149 0 -284 59.5t-233 160t-156 240t-58 292.5zM276 727q0 -162 72.5 -296.5t198.5 -212t278 -77.5q155 0 283 77.5 t201 212t73 296.5q0 161 -73 295t-201 211.5t-283 77.5q-114 0 -216 -45.5t-175 -123.5t-115.5 -186.5t-42.5 -228.5zM569 356v750h312q110 0 177.5 -65.5t67.5 -172.5q0 -79 -42 -130t-91 -64v-4q9 -8 27 -43l141 -271h-192l-127 277h-99v-277h-174zM743 756h97 q51 0 79.5 29.5t28.5 82.5t-28 82t-78 29h-99v-223z" />
<glyph unicode="&#xaf;" horiz-adv-x="1009" d="M238 1604v178h536v-178h-536z" />
<glyph unicode="&#xb0;" horiz-adv-x="808" d="M72 1157q0 133 97.5 228.5t236.5 95.5q137 0 235 -95.5t98 -228.5q0 -135 -97.5 -228t-235.5 -93q-140 0 -237 93t-97 228zM270 1157q0 -57 39.5 -96t96.5 -39t97 39t40 96q0 56 -40 95.5t-97 39.5t-96.5 -39.5t-39.5 -95.5z" />
<glyph unicode="&#xb1;" horiz-adv-x="1296" d="M100 483v203h443v485h211v-485h442v-203h-442v-483h-211v483h-443zM129 -174h1040v-201h-1040v201z" />
<glyph unicode="&#xb2;" horiz-adv-x="808" d="M90 950q0 72 23.5 132t61 101t82.5 75.5t90 62t82.5 53.5t61 57.5t23.5 67.5q0 47 -36.5 77t-90.5 30q-41 0 -81.5 -24t-60.5 -48l-20 -23l-127 113q4 7 11.5 17.5t35.5 38.5t59.5 49.5t84.5 39t110 17.5q129 0 220.5 -75.5t91.5 -203.5q0 -69 -29 -126t-72.5 -93 t-95.5 -70t-96.5 -58.5t-76.5 -56.5t-36 -67h418v-170h-625q-8 58 -8 84z" />
<glyph unicode="&#xb3;" horiz-adv-x="808" d="M74 983l102 137q3 -4 8.5 -10.5t25 -23t41 -29t55 -23t69.5 -10.5q61 0 104 37t43 92t-47 86t-113 31h-71l-41 92l162 184q7 9 19.5 21t20.5 20l9 8v4q-41 -6 -72 -6h-264v172h573v-125l-202 -229q101 -20 162 -87t61 -173q0 -124 -94 -214.5t-246 -90.5q-58 0 -110.5 14 t-86.5 34t-59.5 40.5t-36.5 34.5z" />
<glyph unicode="&#xb4;" horiz-adv-x="1009" d="M293 1550l156 279h268l-215 -279h-209z" />
<glyph unicode="&#xb5;" horiz-adv-x="1288" d="M158 -410v1454h258v-618q0 -104 35.5 -158.5t126.5 -54.5q135 0 213.5 102.5t78.5 249.5v479h260v-1044h-249v127l4 66h-6q-2 -5 -6 -12.5t-19 -30.5t-33 -43.5t-48.5 -45.5t-65.5 -43t-84.5 -30.5t-104.5 -12.5q-46 0 -83 10.5t-51 21.5l-13 11h-4q14 -100 14 -170v-258 h-223z" />
<glyph unicode="&#xb6;" horiz-adv-x="1255" d="M74 975q0 201 141 340t340 139h625v-227h-437v-1329h-188v596q-199 0 -340 140t-141 341zM870 -102v1216h191v-1216h-191z" />
<glyph unicode="&#xb7;" horiz-adv-x="567" d="M158 469v258h252v-258h-252z" />
<glyph unicode="&#xb8;" horiz-adv-x="1009" d="M332 -268q43 -17 88 -17q90 0 90 58q0 55 -98 55l-43 -4l63 227l119 -26v-15l-23 -100q67 -8 108.5 -47.5t41.5 -108.5q0 -94 -63.5 -137t-157.5 -43q-31 0 -62.5 3.5t-46.5 6.5l-16 4v144z" />
<glyph unicode="&#xb9;" horiz-adv-x="808" d="M117 1542l231 223h172v-729h187v-170h-570v170h189v424l4 58h-4q-8 -19 -31 -39l-64 -60z" />
<glyph unicode="&#xba;" horiz-adv-x="935" d="M109 1133q0 149 104 245.5t254 96.5q151 0 255.5 -96.5t104.5 -245.5q0 -150 -104.5 -248.5t-255.5 -98.5q-150 0 -254 98.5t-104 248.5zM139 545v139h660v-139h-660zM295 1133q0 -80 50 -131.5t122 -51.5q73 0 123.5 51.5t50.5 131.5q0 78 -50.5 129t-123.5 51 q-72 0 -122 -51t-50 -129z" />
<glyph unicode="&#xbb;" horiz-adv-x="1198" d="M82 158l336 420l-336 421h248l336 -421l-336 -420h-248zM543 158l336 420l-336 421h248l335 -421l-335 -420h-248z" />
<glyph unicode="&#xbc;" horiz-adv-x="2000" d="M115 1231l231 223h172v-729h187v-170h-570v170h189v424l4 57h-4q-8 -19 -31 -39l-64 -59zM563 0l688 1454h189l-686 -1454h-191zM1214 203v131l388 565h221v-528h119v-168h-119v-203h-191v203h-418zM1413 371h219v225l6 113h-4q-24 -56 -53 -97l-168 -237v-4z" />
<glyph unicode="&#xbd;" horiz-adv-x="2004" d="M88 1231l231 223h173v-729h186v-170h-569v170h188v424l4 57h-4q-8 -19 -31 -39l-63 -59zM543 0l688 1454h188l-686 -1454h-190zM1251 84q0 72 23.5 132t61 101t82.5 75.5t90 62t82.5 53.5t61 57.5t23.5 67.5q0 47 -36 76.5t-91 29.5q-41 0 -81.5 -23.5t-60.5 -47.5 l-20 -23l-126 113q4 7 11.5 17.5t35.5 38.5t59.5 49.5t84.5 39t110 17.5q129 0 220 -75.5t91 -203.5q0 -69 -29 -126t-72.5 -93t-95.5 -70t-96.5 -58.5t-76.5 -56.5t-36 -67h418v-170h-624q-9 65 -9 84z" />
<glyph unicode="&#xbe;" horiz-adv-x="2019" d="M68 672l102 137q3 -4 8.5 -10.5t25 -23t41 -29t55 -23t69.5 -10.5q61 0 104 37t43 92t-47 85.5t-113 30.5h-71l-41 93l162 184q7 9 19.5 21t20.5 20l9 8v4q-41 -6 -72 -6h-264v172h573v-125l-203 -229q101 -20 162.5 -87t61.5 -173q0 -124 -94 -214.5t-246 -90.5 q-58 0 -110.5 14t-86.5 34.5t-59.5 40.5t-36.5 34zM555 0l688 1454h189l-687 -1454h-190zM1206 203v131l387 565h222v-528h118v-168h-118v-203h-191v203h-418zM1405 371h219v225l6 113h-4q-24 -56 -53 -97l-168 -237v-4z" />
<glyph unicode="&#xbf;" horiz-adv-x="940" d="M66 -45q0 68 19.5 126.5t51.5 100.5t70 79t76 70t70 65t51.5 72t19.5 85v72h250v-90q0 -60 -18.5 -112.5t-48 -91t-65.5 -73.5t-72 -66t-65.5 -62t-48 -69.5t-18.5 -80.5q0 -72 57.5 -122.5t141.5 -50.5q52 0 106 22.5t83 44.5l28 22l145 -181q-6 -6 -17 -15.5 t-48.5 -34.5t-79.5 -44.5t-107 -35t-133 -15.5q-118 0 -218.5 44.5t-165 134t-64.5 206.5zM424 803v241h250v-241h-250z" />
<glyph unicode="&#xc0;" horiz-adv-x="1304" d="M2 0l512 1454h277l512 -1454h-273l-123 373h-510l-123 -373h-272zM340 1829h268l156 -279h-211zM461 588h381l-129 389q-12 36 -26.5 92.5t-22.5 94.5l-9 38h-4q-32 -143 -61 -225z" />
<glyph unicode="&#xc1;" horiz-adv-x="1304" d="M2 0l512 1454h277l512 -1454h-273l-123 373h-510l-123 -373h-272zM461 588h381l-129 389q-12 36 -26.5 92.5t-22.5 94.5l-9 38h-4q-32 -143 -61 -225zM541 1550l155 279h269l-215 -279h-209z" />
<glyph unicode="&#xc2;" horiz-adv-x="1304" d="M2 0l512 1454h277l512 -1454h-273l-123 373h-510l-123 -373h-272zM334 1550l188 279h260l191 -279h-215l-103 166h-4l-102 -166h-215zM461 588h381l-129 389q-12 36 -26.5 92.5t-22.5 94.5l-9 38h-4q-32 -143 -61 -225z" />
<glyph unicode="&#xc3;" horiz-adv-x="1304" d="M2 0l512 1454h277l512 -1454h-273l-123 373h-510l-123 -373h-272zM281 1552q0 281 229 281q46 0 86 -21t63 -45.5t52.5 -45.5t56.5 -21q40 0 60 36.5t20 90.5h176q0 -281 -229 -281q-46 0 -86 21t-63 45.5t-52.5 45.5t-56.5 21q-40 0 -59 -35.5t-19 -91.5h-178zM461 588 h381l-129 389q-12 36 -26.5 92.5t-22.5 94.5l-9 38h-4q-32 -143 -61 -225z" />
<glyph unicode="&#xc4;" horiz-adv-x="1304" d="M2 0l512 1454h277l512 -1454h-273l-123 373h-510l-123 -373h-272zM365 1591v238h200v-238h-200zM461 588h381l-129 389q-12 36 -26.5 92.5t-22.5 94.5l-9 38h-4q-32 -143 -61 -225zM741 1591v238h199v-238h-199z" />
<glyph unicode="&#xc5;" horiz-adv-x="1304" d="M2 0l512 1454h277l512 -1454h-273l-123 373h-510l-123 -373h-272zM459 1686q0 75 57.5 118t136.5 43q78 0 135.5 -43t57.5 -118q0 -74 -58 -117t-135 -43q-79 0 -136.5 43t-57.5 117zM461 588h381l-129 389q-12 36 -26.5 92.5t-22.5 94.5l-9 38h-4q-32 -143 -61 -225z M584 1686q0 -31 18.5 -50.5t50.5 -19.5q31 0 50.5 19.5t19.5 50.5q0 32 -19.5 51.5t-50.5 19.5t-50 -19.5t-19 -51.5z" />
<glyph unicode="&#xc6;" horiz-adv-x="1849" d="M-8 0l604 1454h1133v-227h-609v-381h492v-228h-492v-391h639v-227h-901v623h-346l-246 -623h-274zM596 838h262v389h-108z" />
<glyph unicode="&#xc7;" horiz-adv-x="1470" d="M88 733q0 208 97 379t268.5 269t382.5 98q99 0 190.5 -20.5t152 -49.5t106 -58.5t66.5 -50.5l21 -20l-127 -197q-7 6 -19.5 16.5t-53.5 37t-84.5 47t-109 37t-130.5 16.5q-149 0 -261.5 -69t-169.5 -181.5t-57 -249.5q0 -139 58 -256.5t171.5 -190.5t260.5 -73 q71 0 140 19t118 46t87.5 54t57.5 46l19 19l139 -190q-8 -9 -22.5 -24t-65.5 -53.5t-108.5 -69t-149 -57t-188.5 -30.5l-15 -67q67 -8 108.5 -47.5t41.5 -108.5q0 -94 -63.5 -137t-157.5 -43q-31 0 -62.5 3.5t-46.5 6.5l-16 4v144q43 -17 88 -17q90 0 90 58q0 55 -99 55 l-43 -4l43 158q-293 31 -475 241t-182 510z" />
<glyph unicode="&#xc8;" horiz-adv-x="1177" d="M184 0v1454h871v-227h-606v-381h489v-228h-489v-391h638v-227h-903zM328 1829h268l156 -279h-211z" />
<glyph unicode="&#xc9;" horiz-adv-x="1177" d="M184 0v1454h871v-227h-606v-381h489v-228h-489v-391h638v-227h-903zM528 1550l156 279h268l-215 -279h-209z" />
<glyph unicode="&#xca;" horiz-adv-x="1177" d="M184 0v1454h871v-227h-606v-381h489v-228h-489v-391h638v-227h-903zM322 1550l188 279h260l191 -279h-216l-102 166h-4l-102 -166h-215z" />
<glyph unicode="&#xcb;" horiz-adv-x="1177" d="M184 0v1454h871v-227h-606v-381h489v-228h-489v-391h638v-227h-903zM352 1591v238h201v-238h-201zM729 1591v238h199v-238h-199z" />
<glyph unicode="&#xcc;" horiz-adv-x="632" d="M6 1829h268l156 -279h-211zM184 0v1454h265v-1454h-265z" />
<glyph unicode="&#xcd;" horiz-adv-x="632" d="M184 0v1454h265v-1454h-265zM205 1550l155 279h269l-215 -279h-209z" />
<glyph unicode="&#xce;" horiz-adv-x="632" d="M-2 1550l188 279h260l191 -279h-215l-103 166h-4l-102 -166h-215zM184 0v1454h265v-1454h-265z" />
<glyph unicode="&#xcf;" horiz-adv-x="632" d="M31 1591v238h200v-238h-200zM184 0v1454h265v-1454h-265zM408 1591v238h198v-238h-198z" />
<glyph unicode="&#xd0;" horiz-adv-x="1552" d="M104 616v215h119v623h496q340 0 540.5 -192t200.5 -533t-200.5 -535t-540.5 -194h-496v616h-119zM487 227h218q225 0 354 130t129 372q0 239 -130 368.5t-353 129.5h-218v-396h271v-215h-271v-389z" />
<glyph unicode="&#xd1;" horiz-adv-x="1556" d="M184 0v1454h265l550 -840q24 -37 54.5 -93.5t48.5 -94.5l18 -37h4q-14 139 -14 225v840h262v-1454h-262l-551 838q-24 37 -54.5 93.5t-48.5 94.5l-18 37h-4q15 -139 15 -225v-838h-265zM408 1552q0 281 229 281q46 0 86 -21t63 -45.5t52.5 -45.5t56.5 -21q40 0 60 36.5 t20 90.5h176q0 -281 -229 -281q-46 0 -86 21t-63 45.5t-52.5 45.5t-56.5 21q-40 0 -59 -35.5t-19 -91.5h-178z" />
<glyph unicode="&#xd2;" horiz-adv-x="1671" d="M84 737q0 154 58 291t157.5 236t239 157t297.5 58t297.5 -58t239 -157t157 -236t57.5 -291q0 -158 -57.5 -299t-157 -242.5t-239 -161t-297.5 -59.5t-297.5 59.5t-239 161t-157.5 242.5t-58 299zM356 737q0 -222 139.5 -371t340.5 -149t340 149t139 371q0 141 -64 256 t-173.5 179.5t-241.5 64.5q-98 0 -187 -38t-153 -104t-102 -159t-38 -199zM524 1829h269l155 -279h-211z" />
<glyph unicode="&#xd3;" horiz-adv-x="1671" d="M84 737q0 154 58 291t157.5 236t239 157t297.5 58t297.5 -58t239 -157t157 -236t57.5 -291q0 -158 -57.5 -299t-157 -242.5t-239 -161t-297.5 -59.5t-297.5 59.5t-239 161t-157.5 242.5t-58 299zM356 737q0 -222 139.5 -371t340.5 -149t340 149t139 371q0 141 -64 256 t-173.5 179.5t-241.5 64.5q-98 0 -187 -38t-153 -104t-102 -159t-38 -199zM723 1550l156 279h268l-215 -279h-209z" />
<glyph unicode="&#xd4;" horiz-adv-x="1671" d="M84 737q0 154 58 291t157.5 236t239 157t297.5 58t297.5 -58t239 -157t157 -236t57.5 -291q0 -158 -57.5 -299t-157 -242.5t-239 -161t-297.5 -59.5t-297.5 59.5t-239 161t-157.5 242.5t-58 299zM356 737q0 -222 139.5 -371t340.5 -149t340 149t139 371q0 141 -64 256 t-173.5 179.5t-241.5 64.5q-98 0 -187 -38t-153 -104t-102 -159t-38 -199zM516 1550l189 279h260l190 -279h-215l-102 166h-4l-103 -166h-215z" />
<glyph unicode="&#xd5;" horiz-adv-x="1671" d="M84 737q0 154 58 291t157.5 236t239 157t297.5 58t297.5 -58t239 -157t157 -236t57.5 -291q0 -158 -57.5 -299t-157 -242.5t-239 -161t-297.5 -59.5t-297.5 59.5t-239 161t-157.5 242.5t-58 299zM356 737q0 -222 139.5 -371t340.5 -149t340 149t139 371q0 141 -64 256 t-173.5 179.5t-241.5 64.5q-98 0 -187 -38t-153 -104t-102 -159t-38 -199zM465 1552q0 281 229 281q46 0 86 -21t63 -45.5t52.5 -45.5t56.5 -21q40 0 60 36.5t20 90.5h176q0 -281 -229 -281q-46 0 -86 21t-63 45.5t-52.5 45.5t-56.5 21q-40 0 -59 -35.5t-19 -91.5h-178z" />
<glyph unicode="&#xd6;" horiz-adv-x="1671" d="M84 737q0 154 58 291t157.5 236t239 157t297.5 58t297.5 -58t239 -157t157 -236t57.5 -291q0 -158 -57.5 -299t-157 -242.5t-239 -161t-297.5 -59.5t-297.5 59.5t-239 161t-157.5 242.5t-58 299zM356 737q0 -222 139.5 -371t340.5 -149t340 149t139 371q0 141 -64 256 t-173.5 179.5t-241.5 64.5q-98 0 -187 -38t-153 -104t-102 -159t-38 -199zM549 1591v238h201v-238h-201zM926 1591v238h198v-238h-198z" />
<glyph unicode="&#xd7;" horiz-adv-x="1273" d="M96 141l404 445l-404 442l142 143l399 -438l399 438l142 -143l-406 -442l406 -445l-142 -141l-399 438l-399 -438z" />
<glyph unicode="&#xd8;" horiz-adv-x="1679" d="M90 737q0 154 58 291t157.5 236t239 157t297.5 58q196 0 375 -95l88 123l116 -80l-88 -122q122 -103 191 -251t69 -317q0 -158 -57.5 -299t-157 -242.5t-239 -161t-297.5 -59.5q-217 0 -391 105l-97 -133l-116 80l100 137q-117 106 -182.5 254t-65.5 319zM362 737 q0 -214 127 -360l580 803q-105 57 -227 57q-98 0 -187 -38t-153 -104t-102 -159t-38 -199zM598 285q114 -68 244 -68q201 0 340 149t139 371q0 105 -36.5 197.5t-102.5 159.5z" />
<glyph unicode="&#xd9;" horiz-adv-x="1501" d="M164 522v932h264v-932q0 -144 87 -224.5t235 -80.5q149 0 236 80.5t87 226.5v930h264v-932q0 -245 -161.5 -396t-423.5 -151q-264 0 -426 151t-162 396zM438 1829h269l155 -279h-211z" />
<glyph unicode="&#xda;" horiz-adv-x="1501" d="M164 522v932h264v-932q0 -144 87 -224.5t235 -80.5q149 0 236 80.5t87 226.5v930h264v-932q0 -245 -161.5 -396t-423.5 -151q-264 0 -426 151t-162 396zM637 1550l156 279h268l-215 -279h-209z" />
<glyph unicode="&#xdb;" horiz-adv-x="1501" d="M164 522v932h264v-932q0 -144 87 -224.5t235 -80.5q149 0 236 80.5t87 226.5v930h264v-932q0 -245 -161.5 -396t-423.5 -151q-264 0 -426 151t-162 396zM430 1550l188 279h261l190 -279h-215l-102 166h-4l-103 -166h-215z" />
<glyph unicode="&#xdc;" horiz-adv-x="1501" d="M164 522v932h264v-932q0 -144 87 -224.5t235 -80.5q149 0 236 80.5t87 226.5v930h264v-932q0 -245 -161.5 -396t-423.5 -151q-264 0 -426 151t-162 396zM463 1591v238h201v-238h-201zM840 1591v238h198v-238h-198z" />
<glyph unicode="&#xdd;" horiz-adv-x="1239" d="M4 1454h299l227 -428q20 -39 42 -89t33.5 -78.5t12.5 -27.5h5q41 105 88 195l225 428h299l-483 -846v-608h-265v608zM508 1550l156 279h268l-215 -279h-209z" />
<glyph unicode="&#xde;" horiz-adv-x="1259" d="M184 0v1454h262v-235h297q205 0 334 -131.5t129 -342.5q0 -212 -129.5 -344.5t-333.5 -132.5h-297v-268h-262zM446 496h248q116 0 180 67t64 182t-63.5 180.5t-176.5 65.5h-252v-495z" />
<glyph unicode="&#xdf;" horiz-adv-x="1236" d="M143 0v1083q0 124 69 216t175 136t229 44q178 0 301 -102t123 -255q0 -51 -19 -96.5t-46 -77.5t-54 -61t-46 -61t-19 -64t34 -66t83 -69t98 -76t83 -102.5t34 -133.5q0 -157 -107 -243t-262 -86q-53 0 -100.5 5.5t-78 13.5t-54 15.5t-33.5 13.5l-10 5v221q12 -6 33 -15 t83.5 -23.5t120.5 -14.5q63 0 104.5 30t41.5 93q0 32 -24.5 64t-61.5 58t-80 59t-80 66t-61.5 80t-24.5 99q0 54 29 106t63 86t63 80t29 90q0 57 -45.5 98t-124.5 41q-86 0 -145.5 -48.5t-59.5 -143.5v-1065h-260z" />
<glyph unicode="&#xe0;" horiz-adv-x="1093" d="M55 301q0 68 26 124t66.5 92t98.5 62.5t112.5 40.5t119.5 22.5t107.5 10.5t88.5 2h35v15q0 184 -201 184q-67 0 -138.5 -25t-109.5 -50l-39 -25l-98 186q7 5 19 14t53.5 31t86 39t113 31t137.5 14q206 0 320.5 -109t114.5 -307v-653h-240v86l4 74h-4q2 0 -8.5 -19 t-34.5 -46t-58.5 -54.5t-91.5 -46.5t-124 -19q-147 0 -251 88t-104 238zM231 1452h269l155 -278h-211zM317 313q0 -56 41.5 -95.5t116.5 -39.5q98 0 167 87t69 188v24h-45q-349 0 -349 -164z" />
<glyph unicode="&#xe1;" horiz-adv-x="1093" d="M55 301q0 68 26 124t66.5 92t98.5 62.5t112.5 40.5t119.5 22.5t107.5 10.5t88.5 2h35v15q0 184 -201 184q-67 0 -138.5 -25t-109.5 -50l-39 -25l-98 186q7 5 19 14t53.5 31t86 39t113 31t137.5 14q206 0 320.5 -109t114.5 -307v-653h-240v86l4 74h-4q2 0 -8.5 -19 t-34.5 -46t-58.5 -54.5t-91.5 -46.5t-124 -19q-147 0 -251 88t-104 238zM317 313q0 -56 41.5 -95.5t116.5 -39.5q98 0 167 87t69 188v24h-45q-349 0 -349 -164zM428 1174l156 278h268l-215 -278h-209z" />
<glyph unicode="&#xe2;" horiz-adv-x="1093" d="M55 301q0 68 26 124t66.5 92t98.5 62.5t112.5 40.5t119.5 22.5t107.5 10.5t88.5 2h35v15q0 184 -201 184q-67 0 -138.5 -25t-109.5 -50l-39 -25l-98 186q7 5 19 14t53.5 31t86 39t113 31t137.5 14q206 0 320.5 -109t114.5 -307v-653h-240v86l4 74h-4q2 0 -8.5 -19 t-34.5 -46t-58.5 -54.5t-91.5 -46.5t-124 -19q-147 0 -251 88t-104 238zM221 1174l189 278h260l190 -278h-215l-102 165h-4l-103 -165h-215zM317 313q0 -56 41.5 -95.5t116.5 -39.5q98 0 167 87t69 188v24h-45q-349 0 -349 -164z" />
<glyph unicode="&#xe3;" horiz-adv-x="1093" d="M55 301q0 68 26 124t66.5 92t98.5 62.5t112.5 40.5t119.5 22.5t107.5 10.5t88.5 2h35v15q0 184 -201 184q-67 0 -138.5 -25t-109.5 -50l-39 -25l-98 186q7 5 19 14t53.5 31t86 39t113 31t137.5 14q206 0 320.5 -109t114.5 -307v-653h-240v86l4 74h-4q2 0 -8.5 -19 t-34.5 -46t-58.5 -54.5t-91.5 -46.5t-124 -19q-147 0 -251 88t-104 238zM170 1176q0 280 229 280q46 0 86 -21t63 -45.5t52.5 -45.5t56.5 -21q40 0 60 36.5t20 90.5h176q0 -281 -229 -281q-46 0 -86 21t-63 46t-52.5 46t-56.5 21q-40 0 -59 -35.5t-19 -91.5h-178zM317 313 q0 -56 41.5 -95.5t116.5 -39.5q98 0 167 87t69 188v24h-45q-349 0 -349 -164z" />
<glyph unicode="&#xe4;" horiz-adv-x="1093" d="M55 301q0 68 26 124t66.5 92t98.5 62.5t112.5 40.5t119.5 22.5t107.5 10.5t88.5 2h35v15q0 184 -201 184q-67 0 -138.5 -25t-109.5 -50l-39 -25l-98 186q7 5 19 14t53.5 31t86 39t113 31t137.5 14q206 0 320.5 -109t114.5 -307v-653h-240v86l4 74h-4q2 0 -8.5 -19 t-34.5 -46t-58.5 -54.5t-91.5 -46.5t-124 -19q-147 0 -251 88t-104 238zM254 1214v238h201v-238h-201zM317 313q0 -56 41.5 -95.5t116.5 -39.5q98 0 167 87t69 188v24h-45q-349 0 -349 -164zM631 1214v238h198v-238h-198z" />
<glyph unicode="&#xe5;" horiz-adv-x="1093" d="M55 301q0 68 26 124t66.5 92t98.5 62.5t112.5 40.5t119.5 22.5t107.5 10.5t88.5 2h35v15q0 184 -201 184q-67 0 -138.5 -25t-109.5 -50l-39 -25l-98 186q7 5 19 14t53.5 31t86 39t113 31t137.5 14q206 0 320.5 -109t114.5 -307v-653h-240v86l4 74h-4q2 0 -8.5 -19 t-34.5 -46t-58.5 -54.5t-91.5 -46.5t-124 -19q-147 0 -251 88t-104 238zM317 313q0 -56 41.5 -95.5t116.5 -39.5q98 0 167 87t69 188v24h-45q-349 0 -349 -164zM346 1309q0 75 58 118t137 43q78 0 135 -43t57 -118q0 -74 -57.5 -117t-134.5 -43q-79 0 -137 43t-58 117z M471 1309q0 -31 19 -50.5t51 -19.5q31 0 50 19.5t19 50.5q0 32 -19 51.5t-50 19.5t-50.5 -19.5t-19.5 -51.5z" />
<glyph unicode="&#xe6;" horiz-adv-x="1746" d="M55 301q0 66 24.5 120.5t63 90.5t94.5 63t110 42t118.5 24t111.5 11.5t97 2.5h35v15q0 184 -203 184q-65 0 -137 -25t-111 -50l-39 -25l-96 184q6 5 18 14t52 31.5t83.5 40t111 31.5t136.5 14q243 0 340 -154h4q126 154 349 154q215 0 336.5 -145t121.5 -367l-4 -80h-715 q13 -140 97.5 -210t210.5 -70q47 0 95 11.5t83 28t63.5 33t42.5 28.5l15 11l102 -184q-7 -6 -19 -16t-53.5 -36t-87 -46t-116.5 -36t-144 -16q-151 0 -261 60.5t-177 169.5h-4q-8 -19 -23 -43t-48.5 -58t-75 -61t-106 -46.5t-138.5 -19.5q-151 0 -254 87.5t-103 236.5z M317 313q0 -58 41 -96.5t119 -38.5q101 0 168.5 87t67.5 190v22h-74q-58 0 -110 -7t-102.5 -24t-80 -51t-29.5 -82zM965 655h450q-3 99 -60.5 155t-142.5 56q-99 0 -163 -54t-84 -157z" />
<glyph unicode="&#xe7;" horiz-adv-x="1118" d="M70 522q0 149 68.5 273t199.5 199t299 75q76 0 145.5 -16t114 -39t78 -46t48.5 -39l15 -16l-114 -178q-4 5 -12.5 12.5t-36 27t-57.5 34.5t-75.5 27t-91.5 12q-142 0 -229.5 -93.5t-87.5 -230.5q0 -136 90 -231.5t235 -95.5q49 0 99 13.5t86 33.5t65 39.5t43 32.5l15 14 l100 -185q-6 -6 -16.5 -17t-48.5 -38.5t-80.5 -49t-111 -41t-140.5 -22.5l-15 -67q67 -8 108.5 -47.5t41.5 -108.5q0 -94 -63.5 -137t-157.5 -43q-31 0 -62.5 3.5t-47.5 6.5l-15 4v144q43 -17 88 -17q90 0 90 58q0 55 -98 55l-43 -4l43 160q-214 29 -341.5 179t-127.5 359z " />
<glyph unicode="&#xe8;" horiz-adv-x="1134" d="M70 522q0 241 148.5 394t381.5 153q146 0 252.5 -67t158.5 -178t52 -251l-6 -100h-721q12 -131 101 -203.5t212 -72.5q47 0 95.5 11.5t83.5 28.5t64 34t44 29l14 11l101 -186q-7 -6 -19 -16t-53.5 -36t-87 -46t-116.5 -36t-144 -16q-168 0 -297.5 75t-196.5 199t-67 273z M285 1452h268l156 -278h-211zM344 651h457q-3 103 -60.5 160t-146.5 57q-99 0 -165 -57.5t-85 -159.5z" />
<glyph unicode="&#xe9;" horiz-adv-x="1134" d="M70 522q0 241 148.5 394t381.5 153q146 0 252.5 -67t158.5 -178t52 -251l-6 -100h-721q12 -131 101 -203.5t212 -72.5q47 0 95.5 11.5t83.5 28.5t64 34t44 29l14 11l101 -186q-7 -6 -19 -16t-53.5 -36t-87 -46t-116.5 -36t-144 -16q-168 0 -297.5 75t-196.5 199t-67 273z M344 651h457q-3 103 -60.5 160t-146.5 57q-99 0 -165 -57.5t-85 -159.5zM481 1174l156 278h268l-215 -278h-209z" />
<glyph unicode="&#xea;" horiz-adv-x="1134" d="M70 522q0 241 148.5 394t381.5 153q146 0 252.5 -67t158.5 -178t52 -251l-6 -100h-721q12 -131 101 -203.5t212 -72.5q47 0 95.5 11.5t83.5 28.5t64 34t44 29l14 11l101 -186q-7 -6 -19 -16t-53.5 -36t-87 -46t-116.5 -36t-144 -16q-168 0 -297.5 75t-196.5 199t-67 273z M274 1174l189 278h260l190 -278h-215l-102 165h-4l-103 -165h-215zM344 651h457q-3 103 -60.5 160t-146.5 57q-99 0 -165 -57.5t-85 -159.5z" />
<glyph unicode="&#xeb;" horiz-adv-x="1134" d="M70 522q0 241 148.5 394t381.5 153q146 0 252.5 -67t158.5 -178t52 -251l-6 -100h-721q12 -131 101 -203.5t212 -72.5q47 0 95.5 11.5t83.5 28.5t64 34t44 29l14 11l101 -186q-7 -6 -19 -16t-53.5 -36t-87 -46t-116.5 -36t-144 -16q-168 0 -297.5 75t-196.5 199t-67 273z M307 1214v238h201v-238h-201zM344 651h457q-3 103 -60.5 160t-146.5 57q-99 0 -165 -57.5t-85 -159.5zM684 1214v238h199v-238h-199z" />
<glyph unicode="&#xec;" horiz-adv-x="546" d="M-39 1452h268l156 -278h-211zM143 0v1044h260v-1044h-260z" />
<glyph unicode="&#xed;" horiz-adv-x="546" d="M143 0v1044h260v-1044h-260zM160 1174l155 278h269l-215 -278h-209z" />
<glyph unicode="&#xee;" horiz-adv-x="546" d="M-47 1174l188 278h260l191 -278h-215l-103 165h-4l-102 -165h-215zM143 0v1044h260v-1044h-260z" />
<glyph unicode="&#xef;" horiz-adv-x="546" d="M-14 1214v238h200v-238h-200zM143 0v1044h260v-1044h-260zM362 1214v238h199v-238h-199z" />
<glyph unicode="&#xf0;" horiz-adv-x="1198" d="M68 485q0 123 55 228t166.5 172t259.5 67q58 0 110.5 -15t75.5 -29l23 -15h4q-60 132 -193 217l-379 -164l-12 154l228 100q-104 51 -236 82l72 205q259 -58 442 -170l303 129l12 -152l-180 -80q281 -246 281 -645q0 -87 -18 -169t-59 -160t-101 -136.5t-151.5 -93.5 t-203.5 -35q-116 0 -212 43t-157.5 114.5t-95.5 163t-34 189.5zM330 479q0 -117 63 -200.5t180 -83.5q68 0 121 29t83.5 77t45.5 104.5t15 116.5q0 100 -65.5 164t-176.5 64q-127 0 -196.5 -79.5t-69.5 -191.5z" />
<glyph unicode="&#xf1;" horiz-adv-x="1255" d="M143 0v1044h250v-120l-4 -72h4q15 29 35.5 56.5t54 57.5t72.5 52t93.5 36.5t115.5 14.5q362 0 362 -397v-672h-258v618q0 104 -36 158.5t-130 54.5q-102 0 -176 -58.5t-104 -154.5q-19 -58 -19 -139v-479h-260zM276 1176q0 280 230 280q46 0 86 -21t63 -45.5t52.5 -45.5 t56.5 -21q40 0 60 36.5t20 90.5h176q0 -281 -229 -281q-46 0 -86 21t-63.5 46t-53 46t-56.5 21q-40 0 -58.5 -35.5t-18.5 -91.5h-179z" />
<glyph unicode="&#xf2;" d="M66 522q0 156 77 282t208 195.5t288 69.5q158 0 289.5 -69.5t208.5 -195.5t77 -282q0 -157 -77 -283t-207.5 -195t-288.5 -69q-159 0 -290 69t-208 194.5t-77 283.5zM328 1452h268l156 -278h-211zM330 522q0 -143 90.5 -234t220.5 -91q129 0 219 91t90 234q0 142 -90 234 t-219 92q-130 0 -220.5 -92t-90.5 -234z" />
<glyph unicode="&#xf3;" d="M66 522q0 156 77 282t208 195.5t288 69.5q158 0 289.5 -69.5t208.5 -195.5t77 -282q0 -157 -77 -283t-207.5 -195t-288.5 -69q-159 0 -290 69t-208 194.5t-77 283.5zM330 522q0 -143 90.5 -234t220.5 -91q129 0 219 91t90 234q0 142 -90 234t-219 92q-130 0 -220.5 -92 t-90.5 -234zM528 1174l156 278h268l-215 -278h-209z" />
<glyph unicode="&#xf4;" d="M66 522q0 156 77 282t208 195.5t288 69.5q158 0 289.5 -69.5t208.5 -195.5t77 -282q0 -157 -77 -283t-207.5 -195t-288.5 -69q-159 0 -290 69t-208 194.5t-77 283.5zM322 1174l188 278h260l191 -278h-216l-102 165h-4l-102 -165h-215zM330 522q0 -143 90.5 -234 t220.5 -91q129 0 219 91t90 234q0 142 -90 234t-219 92q-130 0 -220.5 -92t-90.5 -234z" />
<glyph unicode="&#xf5;" d="M66 522q0 156 77 282t208 195.5t288 69.5q158 0 289.5 -69.5t208.5 -195.5t77 -282q0 -157 -77 -283t-207.5 -195t-288.5 -69q-159 0 -290 69t-208 194.5t-77 283.5zM268 1176q0 280 230 280q46 0 86 -21t63 -45.5t52.5 -45.5t56.5 -21q40 0 60 36.5t20 90.5h176 q0 -281 -230 -281q-46 0 -86 21t-63 46t-52.5 46t-56.5 21q-40 0 -59 -35.5t-19 -91.5h-178zM330 522q0 -143 90.5 -234t220.5 -91q129 0 219 91t90 234q0 142 -90 234t-219 92q-130 0 -220.5 -92t-90.5 -234z" />
<glyph unicode="&#xf6;" d="M66 522q0 156 77 282t208 195.5t288 69.5q158 0 289.5 -69.5t208.5 -195.5t77 -282q0 -157 -77 -283t-207.5 -195t-288.5 -69q-159 0 -290 69t-208 194.5t-77 283.5zM330 522q0 -143 90.5 -234t220.5 -91q129 0 219 91t90 234q0 142 -90 234t-219 92q-130 0 -220.5 -92 t-90.5 -234zM352 1214v238h201v-238h-201zM729 1214v238h199v-238h-199z" />
<glyph unicode="&#xf7;" d="M106 483v203h1068v-203h-1068zM522 55v221h234v-221h-234zM522 895v221h234v-221h-234z" />
<glyph unicode="&#xf8;" d="M66 522q0 156 77 282t208 195.5t288 69.5q148 0 274 -63l82 114l113 -78l-80 -112q88 -73 137 -178.5t49 -229.5q0 -157 -77 -283t-207.5 -195t-288.5 -69q-132 0 -260 54l-84 -117l-113 80l80 110q-94 73 -146 181.5t-52 238.5zM330 522q0 -130 78 -221l368 514 q-68 33 -135 33q-130 0 -220.5 -92t-90.5 -234zM518 221q58 -24 123 -24q129 0 219 91t90 234q0 121 -67 207z" />
<glyph unicode="&#xf9;" horiz-adv-x="1247" d="M129 373v671h260v-618q0 -104 35.5 -158.5t126.5 -54.5q135 0 214 102.5t79 249.5v479h260v-1044h-250v119l4 74h-4q-42 -89 -139 -153.5t-223 -64.5q-363 0 -363 398zM305 1452h268l156 -278h-211z" />
<glyph unicode="&#xfa;" horiz-adv-x="1247" d="M129 373v671h260v-618q0 -104 35.5 -158.5t126.5 -54.5q135 0 214 102.5t79 249.5v479h260v-1044h-250v119l4 74h-4q-42 -89 -139 -153.5t-223 -64.5q-363 0 -363 398zM504 1174l155 278h269l-215 -278h-209z" />
<glyph unicode="&#xfb;" horiz-adv-x="1247" d="M129 373v671h260v-618q0 -104 35.5 -158.5t126.5 -54.5q135 0 214 102.5t79 249.5v479h260v-1044h-250v119l4 74h-4q-42 -89 -139 -153.5t-223 -64.5q-363 0 -363 398zM297 1174l188 278h260l191 -278h-215l-103 165h-4l-102 -165h-215z" />
<glyph unicode="&#xfc;" horiz-adv-x="1247" d="M129 373v671h260v-618q0 -104 35.5 -158.5t126.5 -54.5q135 0 214 102.5t79 249.5v479h260v-1044h-250v119l4 74h-4q-42 -89 -139 -153.5t-223 -64.5q-363 0 -363 398zM330 1214v238h200v-238h-200zM707 1214v238h198v-238h-198z" />
<glyph unicode="&#xfd;" horiz-adv-x="1067" d="M-16 1044h292l220 -602q9 -24 18.5 -59.5t15.5 -58.5l5 -23h4q16 82 34 137l205 606h285l-467 -1202q-53 -137 -152.5 -204.5t-224.5 -67.5q-56 0 -110 17t-81 34l-26 17l86 194q58 -43 117 -43q56 0 104 34t76 101l39 92zM424 1174l156 278h268l-215 -278h-209z" />
<glyph unicode="&#xfe;" horiz-adv-x="1249" d="M143 -410v1864h260v-446l-4 -86h4q111 147 308 147q211 0 340 -154.5t129 -392.5t-132 -392.5t-341 -154.5q-62 0 -116.5 14.5t-87.5 35.5t-57 42t-34 35l-9 15h-4q4 -37 4 -90v-437h-260zM395 520q0 -152 72 -238.5t192 -86.5q113 0 186 92.5t73 234.5t-71 234t-185 92 q-118 0 -192.5 -79.5t-74.5 -248.5z" />
<glyph unicode="&#xff;" horiz-adv-x="1067" d="M-16 1044h292l220 -602q9 -24 18.5 -59.5t15.5 -58.5l5 -23h4q16 82 34 137l205 606h285l-467 -1202q-53 -137 -152.5 -204.5t-224.5 -67.5q-56 0 -110 17t-81 34l-26 17l86 194q58 -43 117 -43q56 0 104 34t76 101l39 92zM250 1214v238h201v-238h-201zM627 1214v238h198 v-238h-198z" />
<glyph unicode="&#x152;" horiz-adv-x="1982" d="M82 729q0 154 59.5 291.5t161 236t243 156t300.5 57.5q62 0 142 -8t116 -8h758v-227h-609v-381h492v-228h-492v-391h641v-227h-790q-34 0 -115 -9t-143 -9q-159 0 -300.5 58.5t-243 158t-161 238t-59.5 292.5zM354 729q0 -144 63 -263t176 -188t253 -69q37 0 73.5 3.5 t54.5 7.5l17 3v1008q-61 14 -145 14q-140 0 -253 -69t-176 -187t-63 -260z" />
<glyph unicode="&#x153;" horiz-adv-x="2015" d="M68 520q0 160 76.5 286.5t205 194.5t283.5 68q279 0 432 -215h4q135 215 412 215q146 0 252.5 -67t158.5 -178t52 -251l-7 -100h-718q10 -91 55.5 -154.5t111 -92.5t144.5 -29q47 0 95.5 11.5t83.5 28.5t64 34t43 29l15 11l100 -186q-7 -6 -19 -16t-53.5 -36t-87 -46 t-116.5 -36t-144 -16q-291 0 -436 222h-4q-156 -222 -438 -222q-156 0 -284 66.5t-204.5 192t-76.5 286.5zM330 520q0 -145 90 -234t221 -89q130 0 219.5 89t89.5 236q0 145 -90 235.5t-219 90.5q-131 0 -221 -91t-90 -237zM1225 651h456q-3 101 -59 159t-143 58 q-101 0 -168 -57.5t-86 -159.5z" />
<glyph unicode="&#x178;" horiz-adv-x="1239" d="M4 1454h299l227 -428q20 -39 42 -89t33.5 -78.5t12.5 -27.5h5q41 105 88 195l225 428h299l-483 -846v-608h-265v608zM334 1591v238h201v-238h-201zM711 1591v238h198v-238h-198z" />
<glyph unicode="&#x2c6;" horiz-adv-x="1011" d="M186 1550l189 279h260l190 -279h-215l-102 166h-4l-103 -166h-215z" />
<glyph unicode="&#x2dc;" horiz-adv-x="1009" d="M133 1552q0 281 229 281q46 0 86 -21t63.5 -45.5t53 -45.5t56.5 -21q40 0 59.5 36t19.5 91h177q0 -281 -230 -281q-46 0 -86 21t-63 45.5t-52.5 45.5t-56.5 21q-40 0 -59 -35.5t-19 -91.5h-178z" />
<glyph unicode="&#x2000;" horiz-adv-x="923" />
<glyph unicode="&#x2001;" horiz-adv-x="1847" />
<glyph unicode="&#x2002;" horiz-adv-x="923" />
<glyph unicode="&#x2003;" horiz-adv-x="1847" />
<glyph unicode="&#x2004;" horiz-adv-x="615" />
<glyph unicode="&#x2005;" horiz-adv-x="461" />
<glyph unicode="&#x2006;" horiz-adv-x="307" />
<glyph unicode="&#x2007;" horiz-adv-x="307" />
<glyph unicode="&#x2008;" horiz-adv-x="230" />
<glyph unicode="&#x2009;" horiz-adv-x="369" />
<glyph unicode="&#x200a;" horiz-adv-x="102" />
<glyph unicode="&#x2010;" horiz-adv-x="935" d="M160 471v227h616v-227h-616z" />
<glyph unicode="&#x2011;" horiz-adv-x="935" d="M160 471v227h616v-227h-616z" />
<glyph unicode="&#x2012;" horiz-adv-x="935" d="M160 471v227h616v-227h-616z" />
<glyph unicode="&#x2013;" horiz-adv-x="1452" d="M160 483v203h1132v-203h-1132z" />
<glyph unicode="&#x2014;" horiz-adv-x="1861" d="M160 483v203h1542v-203h-1542z" />
<glyph unicode="&#x2018;" horiz-adv-x="485" d="M82 1032l154 447h182l-96 -447h-240z" />
<glyph unicode="&#x2019;" horiz-adv-x="473" d="M90 1030l96 449h240l-152 -449h-184z" />
<glyph unicode="&#x201a;" horiz-adv-x="512" d="M66 -182l96 446h233l-153 -446h-176z" />
<glyph unicode="&#x201c;" horiz-adv-x="821" d="M82 1032l154 447h184l-98 -447h-240zM418 1032l151 447h185l-97 -447h-239z" />
<glyph unicode="&#x201d;" horiz-adv-x="808" d="M90 1030l96 449h242l-154 -449h-184zM426 1030l96 449h240l-152 -449h-184z" />
<glyph unicode="&#x201e;" horiz-adv-x="837" d="M66 -182l96 446h233l-153 -446h-176zM393 -182l96 446h232l-152 -446h-176z" />
<glyph unicode="&#x2022;" horiz-adv-x="851" d="M84 596q0 141 100.5 241.5t241.5 100.5q142 0 242 -100.5t100 -241.5t-100 -241.5t-242 -100.5q-141 0 -241.5 100.5t-100.5 241.5z" />
<glyph unicode="&#x2026;" horiz-adv-x="1683" d="M133 0v260h250v-260h-250zM715 0v260h252v-260h-252zM1298 0v260h252v-260h-252z" />
<glyph unicode="&#x202f;" horiz-adv-x="369" />
<glyph unicode="&#x2039;" horiz-adv-x="737" d="M72 578l336 421h247l-336 -421l336 -420h-247z" />
<glyph unicode="&#x203a;" horiz-adv-x="737" d="M82 158l336 420l-336 421h248l336 -421l-336 -420h-248z" />
<glyph unicode="&#x205f;" horiz-adv-x="461" />
<glyph unicode="&#x20ac;" horiz-adv-x="1206" d="M63 512v156h115q-9 52 -2 127h-113v157h142q67 233 258.5 380t441.5 147q52 0 106.5 -6.5t83.5 -13.5l29 -7l-63 -240q-78 21 -162 21q-145 0 -253.5 -75.5t-158.5 -205.5h523l-31 -157h-528q-8 -55 2 -127h499l-30 -156h-424q50 -131 160.5 -209t250.5 -78 q45 0 92.5 7.5t72.5 14.5l24 7l49 -242q-105 -37 -242 -37q-259 0 -447.5 148t-252.5 389h-142z" />
<glyph unicode="&#x2122;" horiz-adv-x="1937" d="M37 1282v172h801v-172h-301v-735h-197v735h-303zM893 547l72 907h182l186 -428l29 -86h4q13 51 27 86l188 428h180l70 -907h-195l-34 467l2 63h-5l-159 -364h-154l-160 364h-4l2 -63l-37 -467h-194z" />
<glyph unicode="&#x25fc;" horiz-adv-x="1044" d="M0 0v1044h1044v-1044h-1044z" />
</font>
</defs>
</svg>
